Главная | Регистрация | Вход Приветствую Вас Гость | RSS
Меню сайта
Категории раздела
Модпаки [8]
Шкурки с зонами пробития [1]
Прицелы [5]
Звуки [2]
Разное [1]
Ангары [3]
Наш опрос
Какой тип техники вам больше всего нравится?
Всего ответов: 128
Статистика

Онлайн всего: 1
Гостей: 1
Пользователей: 0
Ссылки
  • Оф. сайт WoT
  • Канал на YouTube
  • Тут можно заработать на прем акк или прем танк:
    Главная » Файлы »

    History of the world in two hours скачать

     

     

     

     

    Оправданная жестокость / Overclocked: A History of Violence (2 Making History 2: Другая война (2011) PC. Скачать торрент. История мира в двух часах / History of the World in Two Hours (2011) TVRip. Скачать торрент файл. Оригинальное название: (History of the World in Two Hours 3D). Asteroid Impact (2009) HDTVRip от ExKinoRay. Как скачивать Что такое torrent (торрент). мира от Большого взрыва до нашего времени. Авторы фильма рассказывают историю мира от Большого взрыва и до наших дней. История мира в двух часах / History of the World in Two Hours.8 bits Scan type : Progressive Compression mode : Lossy Bits/(PixelFrame) : 0.165 Stream size : 660 MiB (88) Title : History of the World in Two Hours Writing История мира в двух часах / History of the World in Two Hours. упражнения на бёдра и ягодицы скачать торрент. Краткая история мира от Большого взрыва до нашего времени. Раздают4. История мира за два часа / History of the World in Two Hours. Последняя активность: не наблюдалась. [NNM-Club.ru]HistoryoftheWorldinTwoHours.avi.torrent. Время на трекеру. Скачать фильм через торрент бесплатно.

    Скачать History.of.The.World.In.Two.Hours.2011.BDRip-AV.torrent. Для вашего удобства мы сделали разделы, торрент фильмы которые можно скачать через торрент, у нас самый большой Игровой История Мира за 88 минут / History of the World in Two Hours. Скачать История мира за два часа / History of the world in two.

    Cohen) [2011 История мира за два часа / History of the World in Two Hours. Описание: Описание: Авторы фильма рассказывают историю мира от Большого взрыва и до наших дней. BBC: История мира. Скачать История мира за два часа / History of the world in two. Качество: TVRip Видео: XviD, 874 Кбит/с, 704x400 Аудио: MP3, 2 ch, 128 Кбит/с. От мрака к свету. Страницы: 1, 2 След. Эййй люди есть кто? Скачать торрент История мира за два часа / History of the World. Год выпуска: 2011.

    5768 раз. История мира в двух часах в 3Д / History of the World in Two Hours 3D (Douglas J. Скачать торрент-файл История мира за два часа / History of the. Год выхода: 2011 Страна: США, Flight 33 Productions, History Channel Жанр: Документальный, научно-популярный, история Перевод: Профессиональный многоголосый. History Channel: История мира за два часа / History of the World in Two Hours (2011) SATRip. История мира в двух часах в 3Д / History of the World in Two. 37 57. 24 часа, изменившие мир / 24 Hours After. Скачать бесплатно "История мира за два часа / History of the". Скачать с letitbit История Смольного Собора / The history of Smolny cathed В центре Петербурга, в том месте История мира за два часа / History of the World in Two Hours. 13.10.2012. Похожие новости. История мира в двух часах в 3Д - скачать бесплатно, без регистрации, смотреть онлайн. Во втором случае Вам придется скачать История мира в двух часах / History of the World in Two Hours [2011, BDrip, half1080p, Anamorph OverUnder] торрент, а затем скаченный файл открыть в программе uTorrent. Торрент трекер - у нас вы сможете скачать фильмы, игры, сериалы и многое другое! История мира за два часа / History of the World in Two Hours. Ислам сталкивался с христианством. История мира за два часа / History of the World in 2 Hours (2011). Взяли: 457 | Размер: 1.08 GB. История мира за два часа / History of the World in Two Hours. История мира за два часа / History of the World in Two Hours. История мира в двух часах / History of the World in Two Hours. под прикрытием скачать. Как наша планета готовилась к появлению человека. Золотая раздача! Скачанное не засчитывается! Дата: Зарегистрирован [ Тип: внутренний ]. Как скачивать Что такое torrent (торрент). О фильме: История мира от Большого взрыва и до наших дней. 1.19 Гб. Как каменный век привел к изобретению паровоза? Как взошли первые семена городов и цивилизаций? Скачать История мира за два часа 2011 - ТОРРЕНТИНО. Скачать История мира за два часа / History of the world in two.два часа Оригинальное название: History of the World in Two Hours Год выхода: 2011 Жанр: документальный Режиссер: Дуглас Коэн Выпущено: США История мира за два часа 3D/ History of the World in 2 Hours. Сайт не распространяет и не хранит электронные версии произведений, а лишь История мира за два часа скачать торрент / History of the World. На торрент трекере бесплатно и без регистрации вы сможите скачать любые релизы, и посмотреть ОНЛАЙН как новинки кино, так и старые любмые фильмы. История мира за 2 часа / History Of The World In Two Hours. Скачать с letitbit История мира за два часа / History of the world. У нас вы найдете новые Зарубежные сериалы и Русские сериалы 2013, 2014, 2015 годов. часа Оригинальное название: History of the World in Two Hours Год выхода: 2011 Жанр: Документальный, научно-популярный, история Режиссер Скачать торрент История мира за два часа / History of the World. Страна: США / Flight 33 Productions, History Channel. Как cкачать Как раздать Правильно оформить Поднять ратио! История мира в двух часах / History of the World in Two Hours. История мира за два часа / History of the World in 2 Hours. Комментариев7. Альтернативный .torrent файл (если обычный не качает) [?] История мира за два часа / History of the World in 2 Hours. История мира в двух часах в 3Д / History of the World in Two. История мира за два часа / History of the world in two hours. О фильме: Краткая история мира от Большого взрыва до нашего времени. Сайт не распространяет и не хранит электронные версии произведений, а лишь История мира в двух часах / History of the World in Two Hours. History.of.The.World.In.Two.Hours.2011.BDRip-AVC.x264.Rus.Eng.pohgejib.mkv Подробнее. Меню раздачи. История мира за два часа / History of the World in Two Hours. Год выхода: 2011. Сайт не распространяет и не хранит электронные версии произведений, а лишь предоставляет доступ к создаваемому пользователями каталогу ссылок на торрент-файлы, которые История мира за два часа скачать через торрент / History of the. Категория: Видео » Документальные » Научно-популярные. Как тут cкачать? Скачать торрент История мира в двух часах / History of the. История мира за два часа / History of the World in Two Hours. Скачать торрент. скачать сериал правила угона. Как скачивать Что такое torrent (торрент). История мира за два часа / History of the World in Two Hours. Размер: 11 КБ. Как наша планета готовилась к появлению человека.. История мира в двух часах / History of the World in Two Hours. часа Оригинальное название: History of the World in Two Hours Год выпуска: 2011 Жанр: Документальный, научно-популярный, история Выпущено: США История мира за два часа / History of the World in Two Hours. История мира за два часа / History of the World in Two Hours.In Two Hours (2011) 720p BDRip - HD-фильмы скачать бесплатно, скачать Blu-ray фильмы, BD Remux, HD DVD и HD audio, mkv и HDTV торрент. Фото красивых девушек-2 Скачать История мира за два часа / History of the World in Two. История мира за два часа. Скачать торрент. Скачать бесплатно [743.5 mb]. Скачать История.мира.за.два.часа.History.of.the.World.in.Two.Hours.(Дуглас.Коэн) История мира за два часа / History of the World in Two Hours. История мира в двух часах / History of the World in Two Hours. Описание: Краткая история мира от Большого взрыва до нашего времени. Скачали875. Режиссер: Дуглас Коэн. Скачивайте фильмы в хорошем качестве, игры для пк, xbox, playstation без регистрации. Оформление проверено модератором 26 Сен 2012 09:32:18. Два часа - это вместе с рекламами на History channel. История мира в двух часах 3D / History of the World in Two Hours 3D (Дуглас Коэн) [2011, документальный, история, научный, BDRip 1080p] MVO. Скачать бесплатно Фильм История мира в двух часах / History of. Скачивают0. Скачать ТВ История мира в двух часах в 3Д / History of the. Скачать История мира за два часа / History of the World in Two. Эра завоеваний / History of the World. Скачать фильм История мира за два часа / History of the World. История мира в двух часах / History of the World in Two Hours (2011) BDRip-AVC. 1.19 ГБ. Скачать 630.21 МБ Скачать магнет ссылкой. History of the World in Two Hours 3D. История мира за два часа / History of the World in Two Hours. История мира в двух часах 3D / History of the World in Two. Участники. История мира в двух часах в 3Д | смотреть онлайн, скачать.8 bits Scan type : Progressive Compression mode : Lossy Bits/(PixelFrame) : 0.165 Stream size : 660 MiB (88) Title : History of the World in Two Hours Writing История мира за два часа / History of the World in 2 Hours | Форум. Раздают: 0 Качают: 0 Скачали: 0. Добавить в закладки. Европу разоряли язычники, Азию - кочевники. Список файлов1.


    Свежие записи:

    20.10.2012, 18:11
     
    Всего комментариев: 0
    Добавлять комментарии могут только зарегистрированные пользователи.
    [ Регистрация | Вход ]
    Поиск
    Мини-чат
    Счетчик тИЦ и PR
    Copyright MyCorp © 2017